TOTAL SIYAPA (2014) 1CD DVDRip Download

TOTAL SIYAPA (2014) – 1CD – DVDRip,Download TOTAL SIYAPA (2014) – 1CD – DVDRip,free download TOTAL SIYAPA (2014) – 1CD – DVDRip,TOTAL SIYAPA (2014),TOTAL SIYAPA (2014) DVDRip download,watch TOTAL SIYAPA (2014),latest download TOTAL SIYAPA (2014),indian movies TOTAL SIYAPA (2014) ,full movies download TOTAL SIYAPA (2014),indian movies full download TOTAL SIYAPA (2014),bollyhood movies TOTAL SIYAPA (2014) – 1CD – DVDRip,720p download TOTAL SIYAPA (2014),
Image

TOTAL SIYAPA (2014) - 1CD - DVDRip,Download TOTAL SIYAPA (2014) - 1CD - DVDRip,free download TOTAL SIYAPA (2014) - 1CD - DVDRip,TOTAL SIYAPA (2014),TOTAL SIYAPA (2014) DVDRip download,watch TOTAL SIYAPA (2014),latest download TOTAL SIYAPA (2014),indian movies TOTAL SIYAPA (2014) ,full movies download TOTAL SIYAPA (2014),indian movies full download TOTAL SIYAPA (2014),bollyhood movies TOTAL SIYAPA (2014) - 1CD - DVDRip,720p download TOTAL SIYAPA (2014),

Code: Select all
IMDB Rating: 5.7/10.0

GENRE: Comedy | Drama | Romance

General
Unique ID : 199903252546021090381402011424041228827 (0x9663F74C2948508DA57E85E506B45A1B)
Complete name : TOTAL SIYAPA (2014) – 1CD – DVDRip – x264 – AC3 – 5.1 – Mafiaking – [D3Si MaNiaCs].mkv
Format : Matroska
Format version : Version 4 / Version 2
File size : 691 MiB
Duration : 1h 48mn
Overall bit rate : 894 Kbps
Movie name : TOTAL SIYAPA (2014) – 1CD – DVDRip – x264 – AC3 – 5.1 – Mafiaking – [D3Si MaNiaCs]
Encoded date : UTC 2014-04-12 09:43:33
Writing application : mkvmerge v6.8.0 (‘Theme for Great Cities’) 64bit built on Mar 2 2014 21:34:26
Writing library : libebml v1.3.0 + libmatroska v1.4.1

Video
ID : 1
Format : AVC
Format/Info : Advanced Video Codec
Format profile : [email protected]
Format settings, CABAC : Yes
Format settings, ReFrames : 5 frames
Codec ID : V_MPEG4/ISO/AVC
Duration : 1h 48mn
Bit rate : 700 Kbps
Width : 640 pixels
Height : 272 pixels
Display aspect ratio : 2.35:1
Frame rate mode : Constant
Frame rate : 23.976 fps
Color space : YUV
Chroma subsampling : 4:2:0
Bit depth : 8 bits
Scan type : Progressive
Bits/(Pixel*Frame) : 0.168
Stream size : 529 MiB (77%)
Title : Mafiaking

Language : Hindi
Default : Yes
Forced : No

Audio
ID : 2
Format : AC-3
Format/Info : Audio Coding 3
Mode extension : CM (complete main)
Format settings, Endianness : Big
Codec ID : A_AC3
Duration : 1h 48mn
Bit rate mode : Constant
Bit rate : 192 Kbps
Channel(s) : 6 channels
Channel positions : Front: L C R, Side: L R, LFE
Sampling rate : 48.0 KHz
Bit depth : 16 bits
Compression mode : Lossy
Stream size : 148 MiB (21%)
Title : Mafiaking
Language : Hindi
Default : Yes
Forced : No

Image
Image
Image
Image
Image
Image
Image

Download

Related Post

Leave a Reply

Your email address will not be published. Required fields are marked *