Bhoothnath Returns (2014) download


IMDB Rating: 8.3/10.0

GENRE: Action | Comedy | Crime

General
Unique ID : 187755289103989343128171565192930546467 (0x8D405A752964B51CA34342BBDBD25323)
Complete name : Bhoothnath Returns (2014) 1CD (New Source) DVDSCR-Rip x264 – AC3 – Mafiaking – [D3Si MaNiaCs] .mkv
Format : Matroska
Format version : Version 4 / Version 2
File size : 700 MiB
Duration : 2h 29mn
Overall bit rate : 656 Kbps
Movie name : Bhoothnath Returns (2014) 1CD (New Source) DVDSCR-Rip x264 – AC3 – Mafiaking – [D3Si MaNiaCs]
Encoded date : UTC 2014-04-12 04:41:51
Writing application : mkvmerge v6.8.0 (‘Theme for Great Cities’) 64bit built on Mar 2 2014 21:34:26
Writing library : libebml v1.3.0 + libmatroska v1.4.1

Bhoothnath Returns (2014) ,Bhoothnath Returns (2014) download,Bhoothnath Returns (2014) watch,indian movies Bhoothnath Returns (2014),Full movies download Bhoothnath Returns (2014),dvd rip download Bhoothnath Returns (2014),Bhoothnath Returns (2014) dvd rip download,Bhoothnath Returns (2014),watch online Bhoothnath Returns (2014),free download Bhoothnath Returns (2014),

Video
ID : 1
Format : AVC
Format/Info : Advanced Video Codec
Format profile : [email protected]
Format settings, CABAC : Yes
Format settings, ReFrames : 5 frames
Codec ID : V_MPEG4/ISO/AVC
Duration : 2h 29mn
Bit rate : 590 Kbps
Width : 640 pixels
Height : 272 pixels
Display aspect ratio : 2.35:1
Frame rate mode : Constant
Frame rate : 29.970 fps
Color space : YUV
Chroma subsampling : 4:2:0
Bit depth : 8 bits
Scan type : Progressive
Bits/(Pixel*Frame) : 0.113
Stream size : 618 MiB (88%)
Title : Mafiaking

Language : Hindi
Default : Yes
Forced : No

Audio
ID : 2
Format : AC-3
Format/Info : Audio Coding 3
Mode extension : CM (complete main)
Format settings, Endianness : Big
Codec ID : A_AC3
Duration : 2h 29mn
Bit rate mode : Constant
Bit rate : 64.0 Kbps
Channel(s) : 2 channels
Channel positions : Front: L R
Sampling rate : 48.0 KHz
Bit depth : 16 bits
Compression mode : Lossy
Stream size : 68.3 MiB (10%)
Title : Mafiaking
Language : Hindi
Default : Yes
Forced : No

Image resized to 70% of its original size [640 x 272]

Image

Image resized to 70% of its original size [640 x 272]

Image
Download

Related Post

Leave a Reply

Your email address will not be published. Required fields are marked *